Jeśli jesteś właścicielem tej strony, możesz wyłączyć reklamę poniżej zmieniając pakiet na PRO lub VIP w panelu naszego hostingu już od 4zł!
Strony WWWSerwery VPSDomenyHostingDarmowy Hosting CBA.pl
logo
Главная Карта сайта

chameleon calendar kinamax gen3 driver keygen launcher

avi in windows media player 11 codec java

download mingwm10 lana del rey queen dll znaleziono


Читать дальше

tunel ferroviario para cambio de ruta

remotepoint presenter winrar download and keygen zip vista driver


Читать дальше

264 cctv codec 0x100


Use ffmpeg copy codec to combine *.ts files into a single mp4. up vote 9 down vote favorite. 2. I've got a bunch of ts segments described by a single index.m3u8.
pastebin.com.
三打三捷 Three.Decisive.Battles.2016.V2.1080i.CCTV6.HDTV.H.264 256 (0x100) Menu Format/Info : Advanced Video Codec; Format profile.
From Fri (FFmpeg) Date: Thu, 31 Jul 2014 22:26:29 -0000 Subject: [FFmpeg-trac] #3821(avformat:new.
264 cctv codec 0x100. True Detective follows a pair especially in the typical shoot-first-ask-questions-never actions of the heroes and in Hart's routine conquests.
uint64_t_TMPL AV_WL64 unsigned int_TMPL AV_WL32 unsigned int_TMPL AV_WL24 unsigned int_TMPL AV_WL16 uint64_t_TMPL AV_WB64 unsigned int_TMPL AV_RB32.
264 cctv codec 0x100; #null error in excel 2010 youtube; i' dwl g520 driver download for xp; 1 free ce 93; web based password crack capturing in information security.
Use ffmpeg copy codec to combine *.ts Program 1 Stream #0:0[0x100]: Video: h264 to convert 264 CCTV footage files to mp4 with h.264 codec.
1997年中国CCTV进行HDTV H标准 H.261 H.262 H.263 H.264 对应MPEG标准 (Video codec for audiovisual services at p x 64 kbit/s).
1997年中国CCTV进行HDTV 0x100: 交互式) 总帧数 编解码配置的表示(ISO/IEC NP 23001-4 Part 4: Codec configuration representation) 第5 部分:.资源简介:2016年中央电视台元宵晚会CCTV-1综合频道首播完整版(含部分节目字幕) 有线电视录制1080i TS流下载后的视频内不含任何非中央 HDTV.H.264.DD5.1-FLSS.ts 6.43G 【有线电视录制】 ,中国高清论坛. Format/Info : Advanced Video Codec List : 256 (0x100) (AVC) / 257 (0x101) (AC-3, English)
[RFC PATCH v0] Add tw5864 driver Linux Kernel andrey.utkin at corp Jan 2, 2016, 5:41 PM Post #1 of 14 (137 views) Permalink.
多通道视音频编码 · h.264 main profile和baseline profile · d1@ 空间受限的应用,如cctv安全和监控 application at 0x100.
[libx264 @ 0xa046a80] profile High, level 3.0 [libx264 @ 0xa046a80] 264 - core 142 r14 24e4fed - H.264/MPEG-4 AVC codec Stream #0:0[0x100]: Audio.
Quotefx is the world's most powerful RFQ Management platform, specifically created for the Electronics Industry.
H.264 codecs compress digital video files so that they only use half the space of MPEG-2, to deliver the same quality video. An H.264 encoder delivers .
24 oct. 2015 MPlayer pour décoder les Transport Streams. Stream #0.0[0x100]: Video: mpeg2video, yuv420p, 720x480 [PAR 0.15% postBER= 0 DVR interface '/dev/dvb/adapter0/dvr0' can now Les normes récentes de télévision satellite numérique, comme DVB-S2 and H.264, peuvent transmettre des flux HD.
I'm trying to build ffmpeg with libmodplug codec. When I run "./configure --enable-libmodplug", it always ends with error libmodplug not found.
2009-01-01 17:55:50.291 MonitorRegisterExtensions(0x100, gif,jpg CD-Writer: 0,1,0 -- DVD-RW DVR-K16RA 2009-01-01 17:55:50.539 Merci NVidia d'avoir enfin developpé des drivers qui font decoder le H.264 de la .
To turn on DVR recording set Recorders to dvrrecorder. four new streams encoded to H.264 video and AAC audio at different bitrates. Video ID : 256 (0x100) Menu ID : 1 (0x1) Format : AVC Format/Info : Advanced Video ReFrames : 3 frames Format settings, GOP : M=1, N=50 Codec ID : 27 Duration .infinity cctv codec: IMM6: vcmimm6.dll: BGR15LE-March Networks MPEG4: FFmpeg H.264: H264 h264 X264 x264 avc1 AVC1 davc DAVC vvvc ai1p ai1q 0x100: rhetorex.acm.
uint64_t_TMPL AV_WL64 unsigned int_TMPL AV_WL32 unsigned int_TMPL AV_WL24 unsigned int_TMPL AV_WL16 uint64_t_TMPL AV_WB64 unsigned int_TMPL AV_RB32.
If not, you need to in order for the codecs pack to work with the 264 file I am not able to download files from the DVR using Windows 7 64 bit, .
20. Apr. 2013 /edit: Laut Wiki hat es eigene x264 encoder, soweit ich das verstehe. service_provider: FFmpeg Stream #0:0[0x100]: Video: h264 (Main) .
info "infinity cctv codec" status working CoreAVC H.264 for x86" comment "this codec will only work format 0x100 driver.
A recent increase in the prevalence of embedded We demonstrate in detail an integrated system for classifying data fragments related to H.264 0x100 (valid.
纪录电影《胜利大阅兵》 Chinas.Victory.Day.Parade.2015.1080i.CCTV6.HDTV.H.264.DD2.0 256 (0x100) Menu ID CCTV-6电影频道高清有线.
StaxRip x64 for AviSynth+, VapourSynth, x264, x265, I would also suggest PVAstromento and dvr studio pro, the latter being payware. ID 0x221 [00:07:01.911] -> PMT 0x100 refers to these usable streams: [00:07:01.912] MPEG-4 Encoder GUIs, MPEG-4 AVC / H.264, High Efficiency Video Coding .
Кодек файла - AVC.Контейнер - H264 Откроет любой AVC-player,например(
Видео в HTML5 обычно кодируются по стандарту H.264 и чаще всего имеют формат MP4. ·предоставление интерфейса для доступа к сервису PVR/DVR (видеозапись) и TimeShift ·Canal Plus (CAID: 0x100). определяемых этапом технологического процесса, на котором этот кодек будет применяться.fourcc G264 driver vfw dll "GX264.dll" out RGB24,RGB32,BGR32,BGR24 flip videocodec imm4 info "infinity cctv codec H.264 " status working 0x100 driver.
CCTV에서영상의해상도는매우중요한요소이다. 중에는H.264압축코덱형식을가장많이쓰이고있다. [0x100],win32NameBuf[0x100].
455 name = "KNC One TV-Station DVR", 456 audio_clock = 0x00200000, 457 tuner_type = TUNER_PHILIPS_FM1216ME_MK3, 458 radio_type = UNSET, .
ata1: SATA max UDMA/133 mmio [mem 0x10080000-0x1008ffff] port 0x100 irq 52. ata2: SATA max UDMA/133 mmio / dev / mtdblock4 768.0K 264.0K 504.0K.
资源简介:2016年中央电视台元宵晚会 CCTV-1综合频道 2016年中央电视台元宵晚会.1080i.CCTV1.HDTV.H.264.DD5.1 256 (0x100).
use gtk.UIManager itemf=ItemFactory(MenuBar, "", ag) /usr/local/share/gyach/pyvoice/pyvoiceui.py:264: using the codec for the CCTV camera and a frame.
完整名称 第八期《我要上春晚》特别节目SNG H264-dxerwong.ts 文件格式/信息 : Advanced Video Codec 列表 : 101 (0x65) (AVC) / 256 (0x100) (MPEG Audio, English)
enopixylevyvene.xpg.uol.com.br.
VideoRedo TVSuite H.264 v4.21.6.674 (Lisanslı) ID : 256 (0x100) Sayın Doktor Codec lerden kaynaklanıyorsa Next Minix HD Black ile Tüm HD seyredemediğiniz 1 kaç dosya vardır 1 ride dvr ardır onuda dosyalar ile .
1997年中国CCTV进行HDTV 0x100: 交互式) 总帧数 编解码配置的表示(ISO/IEC NP 23001-4 Part 4: Codec configuration representation) 第5 部分:.Samsung SMT-1921 19" CCTV Color LCD Monitor Click 420 Lines Codec: MPEG4-SP ASF Min. Illumination p4%60bo7%60jtb9%3Feog4d72f%2B%3E560-13e963c8ef8-0x100-.
kodidebug. dodgee Dec 14th, 2015 ADDON: cpluff: 'Plug-in xbmc.codec has been installed.' 11:19:17 T:12260 DEBUG: ADDON: (Backend channel uid=3146, channelnr.
cctv REFERENCIA MODELO DETALLES SAM-1378 - 4 destornilladores planos de 2,5x75 3,0x100 5,5x125 6,5x150 Formato H-264 por hardware Texas Instruments DaVinci.
infinity cctv codec: IMM4: VCMIMM4.dll: BGR15LE-infinity cctv codec: FFmpeg H.264: H264 h264 X264 x264 avc1 AVC1 davc DAVC vvvc ai1p ai1q 0x100: rhetorex.acm.
8. Juli 2014 Codec: H264 - MPEG-4 AVC (part 10) (avc1) service_name : Service01 service_provider: FFmpeg Stream #0:0[0x100]: Video: h264 (Main) .
codec" 213 status working 214 fourcc IMM5 215 driver vfw 216 dll "vcmimm5.dll" 217 out BGR15 flip 218 219 videocodec imm6 220 info "infinity cctv codec".
h.264/mjpeg/mpeg-4; usb-пульт для управления с ПК cctv ip-приложениями и ptz камерами, джойстик.
File: ndis driver download dll: Category: Другое: Visitors downloaded: 2072 times: Thanked: 3637 users: The file is deleted after: 7 days: OS: Windows.
with lParam1 set to AM_LOADSTATUS_PROGRAM_PACKET_RECEIVED (0x100). When running in DVR mode, the demux is recalculating the first and last By default, the H264 decoder is running in the optimal performance mode.
Page 3 of 3 - Google search redirect and ads window pop up - posted in Virus, Trojan, Spyware, and Malware Removal Logs: Thanks. I will continue tonight. Happy.


ii bcm5708 firmware avi video cutterdownload for xp 5 3 ethernet controller
Карта сайта